<?xml version="1.0" standalone="no"?>
<!DOCTYPE svg PUBLIC "-//W3C//DTD SVG 1.1//EN" "http://www.w3.org/Graphics/SVG/1.1/DTD/svg11.dtd" >
<svg>
<metadata>
Created by FontForge 20090914 at Tue Apr  1 10:59:09 2014
 By www-data
Copyright (C) 2012 by original authors @ fontello.com
</metadata>
<defs>
<font id="fontelloMedium" horiz-adv-x="1000" >
  <font-face 
    font-family="fontelloMedium"
    font-weight="500"
    font-stretch="normal"
    units-per-em="1000"
    panose-1="0 0 0 0 0 0 0 0 0 0"
    ascent="850"
    descent="-150"
    bbox="-78 -149.003 1159 852"
    underline-thickness="50"
    underline-position="-99"
    unicode-range="U+000D-U+F50D"
  />
<missing-glyph horiz-adv-x="250" 
 />
    <glyph glyph-name=".notdef" horiz-adv-x="250" 
 />
    <glyph glyph-name="NULL" horiz-adv-x="0" 
 />
    <glyph glyph-name="NULL" horiz-adv-x="0" 
 />
    <glyph glyph-name="nonmarkingreturn" unicode="&#xd;" horiz-adv-x="333" 
 />
    <glyph glyph-name="space" unicode=" " horiz-adv-x="250" 
 />
    <glyph glyph-name="macron" unicode="&#xaf;" 
d="M340 -65c-18.667 18 -28 40 -28 66s9.16699 48.167 27.5 66.5s40.5 27.5 66.5 27.5s48.167 -9.16699 66.5 -27.5s27.5 -40.5 27.5 -66.5s-9.16699 -48.167 -27.5 -66.5s-40.5 -27.5 -66.5 -27.5s-48 9.33301 -66 28zM715 -65c-18.667 18 -28 40 -28 66
s9.16699 48.167 27.5 66.5s40.5 27.5 66.5 27.5s48.167 -9.16699 66.5 -27.5s27.5 -40.5 27.5 -66.5s-9.16699 -48.167 -27.5 -66.5s-40.5 -27.5 -66.5 -27.5s-48 9.33301 -66 28zM937 657c17.333 0 32.167 -6.16699 44.5 -18.5s18.5 -26.833 18.5 -43.5
c-1.33301 -2.66699 -2.66602 -7.16699 -3.99902 -13.5s-2.66602 -11.5 -3.99902 -15.5c-8 -30 -22.333 -86.667 -43 -170l-47 -192c-4 -14 -11.833 -25.333 -23.5 -34s-23.834 -13 -36.501 -13h-471c-28.667 1.33301 -48.667 17 -60 47l-55 227
c-24.667 104 -43 179.333 -55 226h-140h-30c-8.66699 0 -16 3 -22 9s-9 13.667 -9 23v62c0 9.33301 3 16.833 9 22.5s13.333 8.5 22 8.5h30h187h2c1.33301 0 4 -0.333008 8 -1c24.667 -4 41.667 -19 51 -45c3.33301 -16 9.66602 -42.333 18.999 -79h609z" />
    <glyph glyph-name="uniE084" unicode="&#xd9;" 
d="M340 -65c-18.667 18 -28 40 -28 66s9.16699 48.167 27.5 66.5s40.5 27.5 66.5 27.5s48.167 -9.16699 66.5 -27.5s27.5 -40.5 27.5 -66.5s-9.16699 -48.167 -27.5 -66.5s-40.5 -27.5 -66.5 -27.5s-48 9.33301 -66 28zM715 -65c-18.667 18 -28 40 -28 66
s9.16699 48.167 27.5 66.5s40.5 27.5 66.5 27.5s48.167 -9.16699 66.5 -27.5s27.5 -40.5 27.5 -66.5s-9.16699 -48.167 -27.5 -66.5s-40.5 -27.5 -66.5 -27.5s-48 9.33301 -66 28zM937 657c17.333 0 32.167 -6.16699 44.5 -18.5s18.5 -26.833 18.5 -43.5
c-1.33301 -2.66699 -2.66602 -7.16699 -3.99902 -13.5s-2.66602 -11.5 -3.99902 -15.5c-8 -30 -22.333 -86.667 -43 -170l-47 -192c-4 -14 -11.833 -25.333 -23.5 -34s-23.834 -13 -36.501 -13h-471c-28.667 1.33301 -48.667 17 -60 47l-55 227
c-24.667 104 -43 179.333 -55 226h-140h-30c-8.66699 0 -16 3 -22 9s-9 13.667 -9 23v62c0 9.33301 3 16.833 9 22.5s13.333 8.5 22 8.5h30h187h2c1.33301 0 4 -0.333008 8 -1c24.667 -4 41.667 -19 51 -45c3.33301 -16 9.66602 -42.333 18.999 -79h609zM855.001 532
l-494 0.000976562c4 -16.667 9.33301 -41.334 16 -74.001l43 -176h373z" />
    <glyph glyph-name="Uacute" unicode="&#xda;" horiz-adv-x="928" 
d="M489 32c0 8 -0.999023 15.668 -2.99902 23.001l-5 20c-1.33301 6 -4.66602 12.333 -9.99902 19s-9.33301 12.334 -12 17.001s-7.66699 10 -15 16s-12.333 10.667 -15 14s-8.66699 8 -18 14s-15 10.333 -17 13s-8 7 -18 13s-15.667 10 -17 12c-6 0.666992 -15.333 1 -28 1
c-20 0 -39.667 -1.33301 -59 -4s-39.333 -7.33398 -60 -14.001s-39 -15.334 -55 -26.001s-29 -24.667 -39 -42s-15 -37.333 -15 -60c0 -25.333 6.66699 -48 20 -68s30.666 -35.667 51.999 -47s43.666 -19.666 66.999 -24.999s47 -8 71 -8c22 0 43 2.33301 63 7
s38.667 12 56 22s31.333 23.667 42 41s15.667 37.666 15 60.999v1zM422.001 513.001c0 22 -2.99805 45.666 -8.99805 70.999s-14.667 49.666 -26 72.999s-27 42.666 -47 57.999s-42.333 23 -67 23c-34.667 0 -61.334 -13 -80.001 -39s-28 -56.667 -28 -92
c0 -17.333 2 -35.666 6 -54.999s10.667 -38.666 20 -57.999s19.666 -36.666 30.999 -51.999s26 -28 44 -38s36 -15 54 -15c36 0 62 11.333 78 34s24 52.667 24 90zM349.003 778l244.003 -0.00390625l-75 -44h-75c26.667 -16.667 47 -40 61 -70s21.333 -61.333 22 -94
c0 -27.333 -4.33301 -51.666 -13 -72.999s-19 -38.666 -31 -51.999s-24.333 -25.333 -37 -36s-23 -22 -31 -34s-12.333 -24.667 -13 -38c0 -10 3 -19.333 9 -28s14 -17.667 24 -27s21 -18.333 33 -27s24 -19 36 -31s23 -24.333 33 -37s18 -28.334 24 -47.001
s9 -38.334 9 -59.001c0 -59.333 -26 -111.666 -78 -156.999c-56.667 -48.667 -134.667 -73 -234 -73c-22 0 -44.333 2 -67 6s-45.334 10.333 -68.001 19s-43 19.334 -61 32.001s-32.333 29.334 -43 50.001s-16.334 43.334 -17.001 68.001c0 22.667 7 47.667 21 75
c12 24 30 44.667 54 62s51 30.666 81 39.999s58.667 16 86 20s55.333 6.66699 84 8c-24 30.667 -36 58.334 -36 83.001c0 4.66699 0.333008 9 1 13s1.66699 7.66699 3 11s2.66602 7.33301 3.99902 12s2.66602 8.66699 3.99902 12c-14.667 -2 -27.667 -3 -39 -3
c-55.333 0 -103 18.333 -143 55s-59.667 82.334 -59 137.001c0 52 17.667 98.667 53 140s79 67.666 131 78.999c34.667 7.33301 69.334 11 104.001 11zM929.006 634.996v-71h-143v-143h-71v143h-143v71h143v143h71v-143h143z" />
    <glyph glyph-name="vkontakte" unicode="&#xdb;" horiz-adv-x="1071" 
d="M1070 560c8.66699 -24 -19.3271 -78.6729 -83.9941 -164.006c-8.66699 -12 -20.667 -27.667 -36 -47c-29.333 -37.333 -46 -61.666 -50 -72.999c-6 -15.333 -3.33301 -30.333 8 -45c6 -8 21 -23.333 45 -46h1l3 -3c52.667 -48.667 88.334 -89.667 107.001 -123l4 -7
c1.33301 -2.66699 2.66602 -7.66699 3.99902 -15s1.33301 -13.666 0 -18.999s-6 -10.333 -14 -15s-19 -7 -33 -7l-143 -2c-8.66699 -2 -19 -1 -31 3s-21.667 8 -29 12l-11 7c-11.333 8 -24.333 20 -39 36l-38 43c-10.667 12.667 -22 23.334 -34 32.001s-22.667 11.667 -32 9
l-4 -2c-1.33301 -0.666992 -4.33301 -3.33398 -9 -8.00098s-8.66699 -10 -12 -16s-6.33301 -15.667 -9 -29s-4 -27.666 -4 -42.999c0 -5.33301 -0.666992 -10.333 -2 -15s-2.66602 -8 -3.99902 -10l-2 -3c-6.66699 -7.33301 -16.667 -11.333 -30 -12h-64
c-26.667 -1.33301 -53.667 1.66699 -81 9s-51.666 17.333 -72.999 30s-40.333 25 -57 37s-29.667 22.667 -39 32l-14 13c-4 4 -9 9.66699 -15 17l-40 51c-20.667 26.667 -40.334 54.667 -59.001 84s-41.334 68.666 -68.001 117.999s-51 100 -73 152c-2 6 -3 11 -3 15
s0.666992 7 2 9l2 3c5.33301 7.33301 16 11 32 11l153 1c4.66699 -0.666992 9 -2 13 -4l12 -7c6 -4 10.333 -10 13 -18c7.33301 -18.667 16 -38 26 -58l23 -45l9 -16c10.667 -22 21 -41.333 31 -58s19 -29.334 27 -38.001s15.667 -15.667 23 -21s13.666 -8 18.999 -8
s10.333 1 15 3l3 3c1.33301 1.33301 3.66602 5.33301 6.99902 12s6 15.334 8 26.001s3.66699 25.667 5 45s1.33301 42.666 0 69.999c-0.666992 14.667 -2.33398 28.334 -5.00098 41.001s-5.33398 21.334 -8.00098 26.001l-3 7c-9.33301 12.667 -25 20.667 -47 24
c-4.66699 0.666992 -3.83398 4.83398 2.49902 12.501s13.5 13.5 21.5 17.5c20 10 64.333 14.333 133 13c30.667 -0.666992 55.667 -3 75 -7c7.33301 -2 13.666 -4.66699 18.999 -8s9 -7.66602 11 -12.999s4 -11.333 6 -18s2.66699 -15 2 -25s-1 -20.333 -1 -31
s-0.333008 -23.667 -1 -39s-1 -30.666 -1 -45.999l-1 -23c-0.666992 -11.333 -0.666992 -20.333 0 -27l2 -23c0.666992 -8.66699 2.66699 -16 6 -22s7.66602 -10.667 12.999 -14l9 -2c3.33301 -0.666992 8.33301 1.33301 15 6s13.667 11 21 19s17 20.333 29 37
s24.667 36.667 38 60c22 38.667 42 80.667 60 126c1.33301 4 3.33301 7.33301 6 10l8 8l10 3c4.66699 1.33301 8.33398 1.33301 11.001 0l161 1c14.667 2 26.667 1.66699 36 -1s15 -5.66699 17 -9z" />
    <glyph glyph-name="uniE015" unicode="&#x131;" 
d="M133 102l0.000976562 438h750v-438v-125v-62c0 -16.667 -6.16699 -31.334 -18.5 -44.001s-26.833 -19 -43.5 -19h-63h-500h-62c-16.667 0 -31.334 6.33301 -44.001 19s-19 27.334 -19 44.001v62v125zM883.001 727c17.333 0 32.168 -6.16699 44.501 -18.5
s18.5 -26.833 18.5 -43.5v-63h-875v63c0 16.667 6.16699 31.167 18.5 43.5s26.833 18.5 43.5 18.5h188v63c0 16.667 6.16699 31.167 18.5 43.5s26.833 18.5 43.5 18.5h250c17.333 0 32.166 -6.16699 44.499 -18.5s18.5 -26.833 18.5 -43.5v-63h187z" />
    <glyph glyph-name="uni0275" unicode="&#x275;" horiz-adv-x="610" 
d="M15 526c3.33301 86.667 28.833 153.996 76.5 201.996s115.5 72 203.5 72c86.667 0 158 -20 214 -60c57.333 -41.333 86 -102.666 86 -183.999c0 -42.667 -14 -84 -42 -124c-4.66699 -7.33301 -13.834 -18.166 -27.501 -32.499s-33.834 -30.166 -60.501 -47.499l-46 -30
c-27.333 -23.333 -43.333 -43.333 -48 -60c-2.66699 -6 -4.5 -12.667 -5.5 -20s-1.83301 -15.333 -2.5 -24c0 -9.33301 -5.33301 -14 -16 -14h-128c-10.667 0 -16 4 -16 12c2.66699 64.667 12 106 28 124c8.66699 12 21.167 26 37.5 42s38.5 32 66.5 48l24 14
c14.667 10.667 26 22 34 34c18.667 28.667 28 52 28 70c0 28.667 -8.66699 54.667 -26 78c-9.33301 12.667 -21.666 21.834 -36.999 27.501s-33.666 8.5 -54.999 8.5c-44 0 -75.333 -14.667 -94 -44c-9.33301 -14 -16.333 -28.5 -21 -43.5s-7 -31.167 -7 -48.5h-166z
M293 103.996c30 -0.666992 54.5 -10.668 73.5 -30.001s27.833 -44 26.5 -74c-1.33301 -29.333 -11.833 -53.166 -31.5 -71.499s-44.5 -26.833 -74.5 -25.5c-30 0.666992 -54.5 10.5 -73.5 29.5s-27.833 43.5 -26.5 73.5s11.833 54.167 31.5 72.5s44.5 26.833 74.5 25.5z" />
    <glyph glyph-name="circumflex" unicode="&#x2c6;" 
d="M288 -119c-18.667 18 -28 40 -28 66s9.16699 48.167 27.5 66.5s40.5 27.5 66.5 27.5s48.167 -9.16699 66.5 -27.5s27.5 -40.5 27.5 -66.5s-9.16699 -48.167 -27.5 -66.5s-40.5 -27.5 -66.5 -27.5s-48 9.33301 -66 28zM663 -119c-18.667 18 -28 40 -28 66
s9.16699 48.167 27.5 66.5s40.5 27.5 66.5 27.5s48.167 -9.16699 66.5 -27.5s27.5 -40.5 27.5 -66.5s-9.16699 -48.167 -27.5 -66.5s-40.5 -27.5 -66.5 -27.5s-48 9.33301 -66 28zM885 603c17.333 0 32.167 -6.16699 44.5 -18.5s18.5 -26.833 18.5 -43.5
c-1.33301 -2.66699 -2.66602 -7.16699 -3.99902 -13.5s-2.66602 -11.5 -3.99902 -15.5c-8 -30 -22.333 -86.667 -43 -170l-47 -192c-4 -14 -11.833 -25.333 -23.5 -34s-23.834 -13 -36.501 -13h-471c-28.667 1.33301 -48.667 17 -60 47l-55 227
c-24.667 104 -43 179.333 -55 226h-140h-30c-8.66699 0 -16 3 -22 9s-9 13.667 -9 23v62c0 9.33301 3 16.833 9 22.5s13.333 8.5 22 8.5h30h187h2c1.33301 0 4 -0.333008 8 -1c24.667 -4 41.667 -19 51 -45c3.33301 -16 9.66602 -42.333 18.999 -79h609zM803.001 478
l-494 0.000976562c4 -16.667 9.33301 -41.334 16 -74.001l43 -176h373z" />
    <glyph glyph-name="breve" unicode="&#x2d8;" 
d="M340 -65c-18.667 18 -28 40 -28 66s9.16699 48.167 27.5 66.5s40.5 27.5 66.5 27.5s48.167 -9.16699 66.5 -27.5s27.5 -40.5 27.5 -66.5s-9.16699 -48.167 -27.5 -66.5s-40.5 -27.5 -66.5 -27.5s-48 9.33301 -66 28zM715 -65c-18.667 18 -28 40 -28 66
s9.16699 48.167 27.5 66.5s40.5 27.5 66.5 27.5s48.167 -9.16699 66.5 -27.5s27.5 -40.5 27.5 -66.5s-9.16699 -48.167 -27.5 -66.5s-40.5 -27.5 -66.5 -27.5s-48 9.33301 -66 28zM937 657c17.333 0 32.167 -6.16699 44.5 -18.5s18.5 -26.833 18.5 -43.5
c-1.33301 -2.66699 -2.66602 -7.16699 -3.99902 -13.5s-2.66602 -11.5 -3.99902 -15.5c-8 -30 -22.333 -86.667 -43 -170l-47 -192c-4 -14 -11.833 -25.333 -23.5 -34s-23.834 -13 -36.501 -13h-471c-28.667 1.33301 -48.667 17 -60 47l-55 227
c-24.667 104 -43 179.333 -55 226h-140h-30c-8.66699 0 -16 3 -22 9s-9 13.667 -9 23v62c0 9.33301 3 16.833 9 22.5s13.333 8.5 22 8.5h30h187h2c1.33301 0 4 -0.333008 8 -1c24.667 -4 41.667 -19 51 -45c3.33301 -16 9.66602 -42.333 18.999 -79h609zM824.001 412l31 120
h-494c2.66699 -11.333 12.667 -51.333 30 -120h433z" />
    <glyph glyph-name="tilde" unicode="&#x2dc;" 
d="M292 -119c-18.667 18 -28 40 -28 66s9.16699 48.167 27.5 66.5s40.5 27.5 66.5 27.5s48.167 -9.16699 66.5 -27.5s27.5 -40.5 27.5 -66.5s-9.16699 -48.167 -27.5 -66.5s-40.5 -27.5 -66.5 -27.5s-48 9.33301 -66 28zM667 -119c-18.667 18 -28 40 -28 66
s9.16699 48.167 27.5 66.5s40.5 27.5 66.5 27.5s48.167 -9.16699 66.5 -27.5s27.5 -40.5 27.5 -66.5s-9.16699 -48.167 -27.5 -66.5s-40.5 -27.5 -66.5 -27.5s-48 9.33301 -66 28zM889 603c17.333 0 32.167 -6.16699 44.5 -18.5s18.5 -26.833 18.5 -43.5
c-1.33301 -2.66699 -2.66602 -7.16699 -3.99902 -13.5s-2.66602 -11.5 -3.99902 -15.5c-8 -30 -22.333 -86.667 -43 -170l-47 -192c-4 -14 -11.833 -25.333 -23.5 -34s-23.834 -13 -36.501 -13h-471c-28.667 1.33301 -48.667 17 -60 47l-55 227
c-24.667 104 -43 179.333 -55 226h-140h-30c-8.66699 0 -16 3 -22 9s-9 13.667 -9 23v62c0 9.33301 3 16.833 9 22.5s13.333 8.5 22 8.5h30h187h2c1.33301 0 4 -0.333008 8 -1c24.667 -4 41.667 -19 51 -45c3.33301 -16 9.66602 -42.333 18.999 -79h609zM776.001 358l31 120
h-494c2.66699 -11.333 12.667 -51.333 30 -120h433z" />
    <glyph glyph-name="uni2389" unicode="&#x2389;" horiz-adv-x="679" 
d="M57 686h170c15.333 0 28.5 -5.5 39.5 -16.5s16.5 -24.5 16.5 -40.5v-566c0 -16 -5.5 -29.5 -16.5 -40.5s-24.167 -16.5 -39.5 -16.5h-170c-16 0 -29.5 5.5 -40.5 16.5s-16.5 24.5 -16.5 40.5v566c0 16 5.5 29.5 16.5 40.5s24.5 16.5 40.5 16.5zM57 686h170
c15.333 0 28.5 -5.5 39.5 -16.5s16.5 -24.5 16.5 -40.5v-566c0 -16 -5.5 -29.5 -16.5 -40.5s-24.167 -16.5 -39.5 -16.5h-170c-16 0 -29.5 5.5 -40.5 16.5s-16.5 24.5 -16.5 40.5v566c0 16 5.5 29.5 16.5 40.5s24.5 16.5 40.5 16.5zM453 686h170c16 0 29.5 -5.5 40.5 -16.5
s16.5 -24.5 16.5 -40.5v-566c0 -16 -5.5 -29.5 -16.5 -40.5s-24.5 -16.5 -40.5 -16.5h-170c-15.333 0 -28.5 5.5 -39.5 16.5s-16.5 24.5 -16.5 40.5v566c0 16 5.5 29.5 16.5 40.5s24.167 16.5 39.5 16.5z" />
    <glyph glyph-name="uni23EA" unicode="&#x23ea;" horiz-adv-x="910" 
d="M403 622c14.667 9.33301 27 11 37 5s15 -17.667 15 -35v-482c0 -17.333 -5 -29 -15 -35s-22.333 -4.33301 -37 5l-374 248c-9.33301 6 -14 13.333 -14 22c0 10.667 4.66699 18.667 14 24zM469 350c0 10 4.66699 17.999 14 23.999l360 248c14.667 10 27 11.833 37 5.5
s15 -18.166 15 -35.499v-482c0 -17.333 -5 -29.166 -15 -35.499s-22.333 -4.5 -37 5.5l-360 248c-9.33301 5.33301 -14 12.666 -14 21.999z" />
    <glyph glyph-name="uni25B6" unicode="&#x25b6;" horiz-adv-x="725" 
d="M674 400c8 -4 14.833 -9.66895 20.5 -17.002s9 -15.166 10 -23.499s-0.666992 -16.666 -5 -24.999s-12.833 -15.833 -25.5 -22.5l-571 -284c-10 -6 -19.667 -9.33301 -29 -10s-17.666 0.833008 -24.999 4.5s-13.166 9.5 -17.499 17.5s-6.5 17.667 -6.5 29v578
c0 11.333 2.16699 21 6.5 29s10.166 13.833 17.499 17.5s15.666 5.16699 24.999 4.5s19 -4 29 -10l571 -288v0z" />
    <glyph glyph-name="uni2630" unicode="&#x2630;" horiz-adv-x="979" 
d="M61 729c17.333 0 31.833 -6.16699 43.5 -18.5s17.5 -27.166 17.5 -44.499s-5.83301 -32.333 -17.5 -45s-26.167 -19 -43.5 -19s-32 6.33301 -44 19s-18 27.667 -18 45s6 32.166 18 44.499s26.667 18.5 44 18.5zM61 412c17.333 0 31.833 -6.16699 43.5 -18.5
s17.5 -27.166 17.5 -44.499s-5.83301 -32.166 -17.5 -44.499s-26.167 -18.5 -43.5 -18.5s-32 6.16699 -44 18.5s-18 27.166 -18 44.499s6 32.166 18 44.499s26.667 18.5 44 18.5zM61 96c17.333 0 31.833 -6.33301 43.5 -19s17.5 -27.667 17.5 -45
s-5.83301 -32.166 -17.5 -44.499s-26.167 -18.5 -43.5 -18.5s-32 6.16699 -44 18.5s-18 27.166 -18 44.499s6 32.333 18 45s26.667 19 44 19zM306 729h612c17.333 0 31.833 -6.16699 43.5 -18.5s17.5 -27.166 17.5 -44.499s-5.83301 -32.333 -17.5 -45
s-26.167 -19 -43.5 -19h-612c-17.333 0 -32 6.33301 -44 19s-18 27.667 -18 45s6 32.166 18 44.499s26.667 18.5 44 18.5zM306 412h612c17.333 0 31.833 -6.16699 43.5 -18.5s17.5 -27.166 17.5 -44.499s-5.83301 -32.166 -17.5 -44.499s-26.167 -18.5 -43.5 -18.5h-612
c-17.333 0 -32 6.16699 -44 18.5s-18 27.166 -18 44.499s6 32.166 18 44.499s26.667 18.5 44 18.5zM306 96h612c17.333 0 31.833 -6.33301 43.5 -19s17.5 -27.667 17.5 -45s-5.83301 -32.166 -17.5 -44.499s-26.167 -18.5 -43.5 -18.5h-612c-17.333 0 -32 6.16699 -44 18.5
s-18 27.166 -18 44.499s6 32.333 18 45s26.667 19 44 19z" />
    <glyph glyph-name="uni2631" unicode="&#x2631;" horiz-adv-x="1002" 
d="M548 732h393c17.333 0 31.833 -6.33301 43.5 -19s17.5 -27.667 17.5 -45s-5.83301 -32.166 -17.5 -44.499s-26.167 -18.5 -43.5 -18.5h-393c-17.333 0 -31.833 6.16699 -43.5 18.5s-17.5 27.166 -17.5 44.499s5.83301 32.333 17.5 45s26.167 19 43.5 19zM548 415h393
c17.333 0 31.833 -6.16699 43.5 -18.5s17.5 -27.166 17.5 -44.499s-5.83301 -32.333 -17.5 -45s-26.167 -19 -43.5 -19h-393c-17.333 0 -31.833 6.33301 -43.5 19s-17.5 27.667 -17.5 45s5.83301 32.166 17.5 44.499s26.167 18.5 43.5 18.5zM548 98h393
c17.333 0 31.833 -6.16699 43.5 -18.5s17.5 -27.166 17.5 -44.499s-5.83301 -32.166 -17.5 -44.499s-26.167 -18.5 -43.5 -18.5h-393c-17.333 0 -31.833 6.16699 -43.5 18.5s-17.5 27.166 -17.5 44.499s5.83301 32.166 17.5 44.499s26.167 18.5 43.5 18.5zM422 193
l0.00195312 -204c-7.33301 -13.333 -14.833 -19.166 -22.5 -17.499s-13.834 6.83398 -18.501 15.501l-159 130h-20l-159 -129c-4.66699 -8.66699 -10.834 -13.834 -18.501 -15.501s-15.167 4.16602 -22.5 17.499v203v483c0 20.667 7.33301 38.334 22 53.001s32.667 22 54 22
h268c21.333 0 39.333 -7.33301 54 -22s22 -32.334 22 -53.001v-366v-3v-114z" />
    <glyph glyph-name="uni2715" unicode="&#x2715;" horiz-adv-x="664" 
d="M650 142c7.33301 -6.66699 11 -15.334 11 -26.001s-3.66699 -19.667 -11 -27l-55 -55c-7.33301 -7.33301 -16.5 -11 -27.5 -11s-20.167 3.66699 -27.5 11l-208 208l-209 -208c-7.33301 -7.33301 -16.333 -11 -27 -11s-20 3.66699 -28 11l-55 55
c-7.33301 7.33301 -11 16.333 -11 27s3.66699 19.334 11 26.001l209 210l-209 209c-7.33301 6.66699 -11 15.334 -11 26.001s3.66699 20.334 11 29.001l55 54c8 7.33301 17.333 11 28 11s19.667 -3.66699 27 -11l209 -209l208 209c7.33301 7.33301 16.5 11 27.5 11
s20.167 -3.66699 27.5 -11l55 -54c7.33301 -8.66699 11 -18.334 11 -29.001s-3.66699 -19.334 -11 -26.001l-208 -209z" />
    <glyph glyph-name="uniE715" unicode="&#xe715;" horiz-adv-x="839" 
d="M164 512c22.667 0 44 -4.33301 64 -13s37.5 -20.334 52.5 -35.001s26.833 -31.834 35.5 -51.501s13 -40.834 13 -63.501s-4.33301 -43.834 -13 -63.501s-20.5 -37 -35.5 -52s-32.5 -26.833 -52.5 -35.5s-41.333 -13 -64 -13s-44 4.33301 -64 13s-37.5 20.5 -52.5 35.5
s-26.833 32.333 -35.5 52s-13 40.834 -13 63.501s4.33301 43.834 13 63.501s20.5 36.834 35.5 51.501s32.5 26.334 52.5 35.001s41.333 13 64 13zM674 817c22.667 0 44 -4.33301 64 -13s37.5 -20.334 52.5 -35.001s26.833 -31.834 35.5 -51.501s13 -40.834 13 -63.501
s-4.33301 -44 -13 -64s-20.5 -37.333 -35.5 -52s-32.5 -26.334 -52.5 -35.001s-41.333 -13 -64 -13c-23.333 0 -45 4.33301 -65 13s-37.5 20.334 -52.5 35.001s-26.833 32 -35.5 52s-13 41.333 -13 64s4.33301 43.834 13 63.501s20.5 36.834 35.5 51.501
s32.5 26.334 52.5 35.001s41.667 13 65 13zM674 224c22.667 0 44 -4.33301 64 -13s37.5 -20.5 52.5 -35.5s26.833 -32.333 35.5 -52s13 -40.834 13 -63.501s-4.33301 -43.834 -13 -63.501s-20.5 -36.834 -35.5 -51.501s-32.5 -26.334 -52.5 -35.001s-41.333 -13 -64 -13
c-23.333 0 -45 4.33301 -65 13s-37.5 20.334 -52.5 35.001s-26.833 31.834 -35.5 51.501s-13 40.834 -13 63.501s4.33301 43.834 13 63.501s20.5 37 35.5 52s32.5 26.833 52.5 35.5s41.667 13 65 13zM152 406l577 337l52 -90l-578 -337zM133 413l577 -337l-51 -90l-577 337z
" />
    <glyph glyph-name="uniE750" unicode="&#xe750;" horiz-adv-x="845" 
d="M835 39c5.33301 -5.33301 7.99902 -11.502 7.99902 -18.502s-2.66699 -13.167 -8 -18.5l-74 -75c-5.33301 -5.33301 -11.5 -8 -18.5 -8s-13.167 2.66699 -18.5 8l-150 150c-28.667 -18 -60.5 -31 -95.5 -39s-70.833 -12 -107.5 -12
c-50.667 0 -98.334 9.33301 -143.001 28s-83.667 44.334 -117 77.001s-59.666 71 -78.999 115s-29 91.667 -29 143c0 50.667 9.66699 98.5 29 143.5s45.666 84.333 78.999 118s72.333 60.334 117 80.001s92.334 29.5 143.001 29.5s98.334 -9.66699 143.001 -29
s83.5 -45.666 116.5 -78.999s59 -72.333 78 -117s28.5 -92.334 28.5 -143.001c0 -36.667 -4 -72.5 -12 -107.5s-21 -66.833 -39 -95.5zM370.999 128.998c36 0 70 7 102 21s60 33 84 57s42.833 52.167 56.5 84.5s20.5 66.5 20.5 102.5s-6.83301 70 -20.5 102
s-32.5 60 -56.5 84s-52 42.833 -84 56.5s-66 20.5 -102 20.5s-70 -6.83301 -102 -20.5s-60 -32.5 -84 -56.5s-42.833 -52 -56.5 -84s-20.5 -66 -20.5 -102s6.83301 -70.167 20.5 -102.5s32.5 -60.5 56.5 -84.5s52 -43 84 -57s66 -21 102 -21zM422.999 444.998h105v-105h-105
v-105h-105v105h-105v105h105v105h105v-105z" />
    <glyph glyph-name="uniE751" unicode="&#xe751;" horiz-adv-x="847" 
d="M834 34c5.33301 -5.33301 7.99902 -11.502 7.99902 -18.502s-2.66699 -13.167 -8 -18.5l-74 -74c-5.33301 -5.33301 -11.5 -8 -18.5 -8s-13.167 2.66699 -18.5 8l-150 149c-28.667 -18 -60.5 -31 -95.5 -39s-70.833 -12 -107.5 -12
c-50.667 0 -98.334 9.33301 -143.001 28s-83.667 44.334 -117 77.001s-59.666 71 -78.999 115s-29 91.667 -29 143c0 50.667 9.66699 98.5 29 143.5s45.666 84.333 78.999 118s72.333 60.334 117 80.001s92.334 29.5 143.001 29.5s98.334 -9.66699 143.001 -29
s83.5 -45.666 116.5 -78.999s59 -72.333 78 -117s28.5 -92.334 28.5 -143.001c0 -36.667 -4 -72.5 -12 -107.5s-21 -66.833 -39 -95.5zM369.999 123.998c36 0 70 7 102 21s60 33 84 57s42.833 52.167 56.5 84.5s20.5 66.5 20.5 102.5s-6.83301 70 -20.5 102
s-32.5 60 -56.5 84s-52 42.833 -84 56.5s-66 20.5 -102 20.5s-70 -6.83301 -102 -20.5s-60 -32.5 -84 -56.5s-42.833 -52 -56.5 -84s-20.5 -66 -20.5 -102s6.83301 -70.167 20.5 -102.5s32.5 -60.5 56.5 -84.5s52 -43 84 -57s66 -21 102 -21zM211.999 439.998h315v-105h-315
v105z" />
    <glyph glyph-name="uniF8FF" unicode="&#xe759;" horiz-adv-x="955" 
d="M550 -96h-436c-15.333 0 -30 2.83301 -44 8.5s-26.167 13.334 -36.5 23.001s-18.5 21.167 -24.5 34.5s-9 28 -9 44v688c0 15.333 3 29.666 9 42.999s14.167 25 24.5 35s22.5 17.833 36.5 23.5s28.667 8.5 44 8.5h436c15.333 0 30.166 -2.83301 44.499 -8.5
s27 -13.5 38 -23.5s19.833 -21.667 26.5 -35s10 -27.666 10 -42.999v-688c0 -16 -3.33301 -30.667 -10 -44s-15.5 -24.833 -26.5 -34.5s-23.667 -17.334 -38 -23.001s-29.166 -8.5 -44.499 -8.5zM267 -39h39c4.66699 -10 14 -15 28 -15c10.667 0 18.667 5 24 15h44v53h-44
c-5.33301 2 -10 4.83301 -14 8.5s-7.33301 5.5 -10 5.5c-4.66699 0 -9 -1.83301 -13 -5.5s-7.33301 -6.5 -10 -8.5h-44v-53zM559 649c0 16.667 -5.33301 30.334 -16 41.001s-24.667 16 -42 16h-338c-17.333 0 -31.166 -5.33301 -41.499 -16s-15.5 -24.334 -15.5 -41.001
v-525c0 -17.333 5.16699 -31.166 15.5 -41.499s24.166 -15.5 41.499 -15.5h338c17.333 0 31.333 5.16699 42 15.5s16 24.166 16 41.499v525z" />
    <glyph glyph-name="uniE75B" unicode="&#xe75b;" horiz-adv-x="646" 
d="M464 159v-220c-4 -7.33301 -8.16699 -12.5 -12.5 -15.5s-8.5 -4.33301 -12.5 -4s-7.66699 2 -11 5s-6.33301 6.83301 -9 11.5l-174 144h-23l-173 -143c-5.33301 -9.33301 -12.166 -15 -20.499 -17s-16.5 4.33301 -24.5 19v224v533c0 11.333 2.16699 22.166 6.5 32.499
s10.333 19.333 18 27s16.5 13.667 26.5 18s21 6.5 33 6.5h292c23.333 0 43.166 -8.16699 59.499 -24.5s24.5 -36.166 24.5 -59.499v-97h-100v-120h-120v-200h120v-120h100zM524 439h120v-120h-120v-120h-120v120h-120v120h120v120h120v-120z" />
    <glyph glyph-name="uniE75C" unicode="&#xe75c;" horiz-adv-x="644" 
d="M463 274v-116v-224c-4 -7.33301 -8.16699 -12.5 -12.5 -15.5s-8.5 -4.33301 -12.5 -4s-7.66699 2 -11 5s-6.33301 6.83301 -9 11.5l-174 144h-23l-173 -143c-5.33301 -9.33301 -12.166 -15 -20.499 -17s-16.5 4.33301 -24.5 19v224v533
c0 11.333 2.16699 22.166 6.5 32.499s10.333 19.333 18 27s16.5 13.667 26.5 18s21 6.5 33 6.5h292c23.333 0 43.166 -8.16699 59.499 -24.5s24.5 -36.166 24.5 -59.499v-217h-100h-120v-200h120h100zM283 434h360v-120h-360v120z" />
    <glyph glyph-name="uniE75D" unicode="&#xe75d;" horiz-adv-x="520" 
d="M497 78c14 -14 21 -30.835 21 -50.502s-7 -36.167 -21 -49.5l-25 -25c-13.333 -14 -29.833 -21 -49.5 -21s-36.5 7 -50.5 21l-323 323c-0.666992 0 -1.33398 0.333008 -2.00098 1l-25 25c-14.667 14.667 -21.334 31.334 -20.001 50.001
c-1.33301 18.667 5.33398 35.334 20.001 50.001l25 25c0.666992 0.666992 1.33398 1 2.00098 1l323 323c14 14 30.833 21 50.5 21s36.167 -7 49.5 -21l25 -25c14 -13.333 21 -29.833 21 -49.5s-7 -36.5 -21 -50.5l-274 -274z" />
    <glyph glyph-name="uniE75E" unicode="&#xe75e;" horiz-adv-x="515" 
d="M295 350l-275.001 273.996c-13.333 14 -20 30.833 -20 50.5s6.66699 36.167 20 49.5l25 25c14 14 30.833 21 50.5 21s36.5 -7 50.5 -21l323 -323c0.666992 0 1.33398 -0.333008 2.00098 -1l25 -25c7.33301 -7.33301 12.5 -15.166 15.5 -23.499s4.5 -17.166 4.5 -26.499
s-1.5 -18.166 -4.5 -26.499s-8.16699 -16.166 -15.5 -23.499l-25 -25l-2 -1l-323 -323c-14 -14 -30.833 -21 -50.5 -21s-36.5 7 -50.5 21l-25 25c-13.333 13.333 -20 29.833 -20 49.5s6.66699 36.5 20 50.5z" />
    <glyph glyph-name="uniE75F" unicode="&#xe75f;" horiz-adv-x="664" 
d="M19 504c6.66699 15.333 19.333 23 38 23h552c16.667 0 28.5 -7.66699 35.5 -23s4.16699 -29.666 -8.5 -42.999l-275 -277c-9.33301 -7.33301 -19 -11 -29 -11c-11.333 0 -21 3.66699 -29 11l-275 277c-13.333 13.333 -16.333 27.666 -9 42.999z" />
    <glyph glyph-name="uni2632" unicode="&#xe760;" horiz-adv-x="843" 
d="M214 304c0 46.667 8.99805 86.498 26.998 119.498s40.5 60.5 67.5 82.5s56.333 39.333 88 52s61.334 22.334 89.001 29.001s50.834 10.834 69.501 12.501s28.667 2.5 30 2.5v120l260 -210l-260 -210v120c-72 0 -131.667 -6.16699 -179 -18.5s-85.333 -25.833 -114 -40.5
c-33.333 -17.333 -59.333 -37 -78 -59zM687.998 250.998c14.667 0 27.002 -5.00098 37.002 -15.001s15 -22.333 15 -37v-52c0 -1.33301 -0.166992 -2.33301 -0.5 -3s-0.5 -1.33398 -0.5 -2.00098c-0.666992 -14 -3.83398 -27.167 -9.50098 -39.5s-13.167 -23 -22.5 -32
s-20.166 -16 -32.499 -21s-25.5 -7.5 -39.5 -7.5h-525c-14.667 0 -28.334 2.66699 -41.001 8s-23.834 12.833 -33.501 22.5s-17.167 20.834 -22.5 33.501s-8 26.334 -8 41.001v418c0 29.333 9.33301 52.833 28 70.5s42.667 26.5 72 26.5h160
c14.667 0 27.5 -3.83301 38.5 -11.5s16.5 -18.834 16.5 -33.501c1.33301 -15.333 -0.833984 -26.833 -6.50098 -34.5s-12.167 -13.167 -19.5 -16.5c-8 -3.33301 -17.667 -4.66602 -29 -3.99902h-160v-420h520v60c0 8.66699 2.33301 16.667 7 24
c3.33301 6 9.33301 11.667 18 17s21.334 8 38.001 8z" />
    <glyph glyph-name="uniE78D" unicode="&#xe78d;" horiz-adv-x="1160" 
d="M125 478c17.333 0 33.5 -3.33301 48.5 -10s28.167 -15.834 39.5 -27.501s20.333 -25.167 27 -40.5s10 -32 10 -50c0 -17.333 -3.33301 -33.833 -10 -49.5s-15.667 -29.167 -27 -40.5s-24.5 -20.333 -39.5 -27s-31.167 -10 -48.5 -10s-33.666 3.33301 -48.999 10
s-28.666 15.667 -39.999 27s-20.333 24.833 -27 40.5s-10 32.167 -10 49.5c0 18 3.33301 34.667 10 50s15.667 28.833 27 40.5s24.666 20.834 39.999 27.501s31.666 10 48.999 10zM577 481c18 0 34.667 -3.5 50 -10.5s28.833 -16.333 40.5 -28s20.834 -25.5 27.501 -41.5
s10 -33 10 -51s-3.33301 -34.833 -10 -50.5s-15.834 -29.334 -27.501 -41.001s-25.167 -21 -40.5 -28s-32 -10.5 -50 -10.5s-34.833 3.5 -50.5 10.5s-29.334 16.333 -41.001 28s-20.834 25.334 -27.501 41.001s-10 32.5 -10 50.5s3.33301 35 10 51
s15.834 29.833 27.501 41.5s25.334 21 41.001 28s32.5 10.5 50.5 10.5zM1030 481c18 0 34.833 -3.5 50.5 -10.5s29.334 -16.333 41.001 -28s20.834 -25.5 27.501 -41.5s10 -33 10 -51s-3.33301 -34.833 -10 -50.5s-15.834 -29.334 -27.501 -41.001s-25.334 -21 -41.001 -28
s-32.5 -10.5 -50.5 -10.5s-34.667 3.5 -50 10.5s-28.833 16.333 -40.5 28s-20.834 25.334 -27.501 41.001s-10 32.5 -10 50.5s3.33301 35 10 51s15.834 29.833 27.501 41.5s25.167 21 40.5 28s32 10.5 50 10.5z" />
    <glyph glyph-name="uniF301" unicode="&#xf301;" horiz-adv-x="480" 
d="M0 520h89v54c0 28 1.66699 51.167 5 69.5s8.33301 34.5 15 48.5c6.66699 13.333 16.334 27 29.001 41s28 25.667 46 35c17.333 8.66699 38.5 15.167 63.5 19.5s51.5 6.5 79.5 6.5c14 0 27.333 -1 40 -3s25.167 -4.66699 37.5 -8s24.666 -7 36.999 -11l38.5 -12l-35 -132
c-14.667 8.66699 -28.167 16 -40.5 22s-25.833 9 -40.5 9c-14 0 -26.833 -1.66699 -38.5 -5s-20.5 -8 -26.5 -14c-12.667 -12 -19 -35 -19 -69v-51h152l-33 -140h-119v-465h-191v465h-89v140z" />
    <glyph glyph-name="uniF302" unicode="&#xf302;" horiz-adv-x="939" 
d="M730 769c20 0 39 -4 57 -12s33.5 -18.667 46.5 -32s23.333 -29.166 31 -47.499s11.5 -37.833 11.5 -58.5s-3.83301 -40.167 -11.5 -58.5s-18 -34.166 -31 -47.499s-28.5 -24 -46.5 -32s-37 -12 -57 -12s-39 4 -57 12s-33.667 18.667 -47 32s-23.833 29.166 -31.5 47.499
s-11.5 37.833 -11.5 58.5s3.83301 40.167 11.5 58.5s18.167 34.166 31.5 47.499s29 24 47 32s37 12 57 12zM733 409c28.667 0 55.498 -5.5 80.498 -16.5s46.833 -26 65.5 -45s33.334 -41.333 44.001 -67s16 -52.834 16 -81.501v-270h-411v270
c0 28.667 5.33301 55.834 16 81.501s25.334 48 44.001 67s40.5 34 65.5 45s51.5 16.5 79.5 16.5zM376.998 713c12.667 0 24.5 -2.33301 35.5 -7s20.5 -11.167 28.5 -19.5s14.333 -18.166 19 -29.499s7 -23.333 7 -36s-2.33301 -24.667 -7 -36s-11 -21.166 -19 -29.499
s-17.5 -14.833 -28.5 -19.5s-22.833 -7 -35.5 -7c-12 0 -23.5 2.33301 -34.5 7s-20.667 11.167 -29 19.5s-14.833 18.166 -19.5 29.499s-7 23.333 -7 36s2.33301 24.667 7 36s11.167 21.166 19.5 29.499s18 14.833 29 19.5s22.5 7 34.5 7zM381.998 475
c20 0 38.833 -4 56.5 -12s33.167 -18.667 46.5 -32s23.833 -29.166 31.5 -47.499s11.5 -37.833 11.5 -58.5v-276h-293v276c0 20.667 3.83301 40.167 11.5 58.5s18.167 34.166 31.5 47.499s29 24 47 32s37 12 57 12zM116.998 713c17.333 0 32.166 -6.33301 44.499 -19
s18.5 -28 18.5 -46s-6.16699 -33.333 -18.5 -46s-27.166 -19 -44.499 -19c-18 0 -33.167 6.33301 -45.5 19s-18.5 28 -18.5 46s6.16699 33.333 18.5 46s27.5 19 45.5 19zM114.998 529c16.667 0 32.168 -3.16699 46.501 -9.5s27 -15.166 38 -26.499s19.667 -24.5 26 -39.5
s9.5 -30.833 9.5 -47.5v-237h-237v237c0 16.667 3 32.5 9 47.5s14.167 28.167 24.5 39.5s22.666 20.166 36.999 26.499s29.833 9.5 46.5 9.5z" />
    <glyph glyph-name="uniF303" unicode="&#xf303;" horiz-adv-x="968" 
d="M959 136c0 -28 -9 -53 -27 -75l-278 251l282 254c7.33301 -10 13 -20.833 17 -32.5s6 -24.167 6 -37.5v-360zM69 605c16 7.33301 32.667 11 50 11h720c17.333 0 34 -3.66699 50 -11l-410 -370zM304 312l-278 -251c-18 22 -27 47 -27 75v360c0 13.333 2 25.833 6 37.5
s9.66699 22.5 17 32.5zM883 24c-14.667 -5.33301 -29.3301 -8 -43.9971 -8h-720c-16.667 0 -31.334 3 -44.001 9l274 247l107 -97v-1c0.666992 0 1.16699 -0.166992 1.5 -0.5s0.833008 -0.5 1.5 -0.5v-1h1c2.66699 -2.66699 5.66699 -4.33398 9 -5.00098
c0.666992 -0.666992 1.66699 -1 3 -1c1.33301 -0.666992 3.66602 -1 6.99902 -1s5.66602 0.333008 6.99902 1c1.33301 0 2.33301 0.333008 3 1c3.33301 0.666992 6.33301 2.33398 9 5.00098h1v1c0.666992 0 1.16699 0.166992 1.5 0.5s0.833008 0.5 1.5 0.5v1l107 96z" />
    <glyph glyph-name="uniF304" unicode="&#xf304;" horiz-adv-x="1064" 
d="M-67 142c29.333 -13.333 57.6709 -25.0088 85.0039 -35.0088c23.333 -9.33301 47.333 -17.5 72 -24.5s45 -10.5 61 -10.5c23.333 -4.66699 47 -5.66699 71 -3c20 2.66699 41.833 9.16699 65.5 19.5s45.5 28.833 65.5 55.5c3.33301 5.33301 5.66602 10.666 6.99902 15.999
c2.66699 10.667 -2 19.334 -14 26.001c-49.333 14.667 -92.333 29.334 -129 44.001c-16 6 -31.333 12.5 -46 19.5s-27.5 13.833 -38.5 20.5s-19.333 13.167 -25 19.5s-7.5 12.5 -5.5 18.5c0 4.66699 1.33301 8.66699 4 12c2 2.66699 5.16699 4.83398 9.5 6.50098
s10.833 1.83398 19.5 0.500977c7.33301 6.66699 13 13.334 17 20.001c3.33301 5.33301 5.66602 10.833 6.99902 16.5s-0.333984 10.167 -5.00098 13.5c-5.33301 6.66699 -9.33301 13 -12 19c-2 4.66699 -3 9 -3 13s3 6.33301 9 7c11.333 -3.33301 22.333 -6.33301 33 -9
c9.33301 -2.66699 18.5 -5 27.5 -7s16.167 -3.66699 21.5 -5c2.66699 0.666992 4.66699 2 6 4c1.33301 1.33301 1.66602 2.83301 0.999023 4.5s-2.66699 4.16699 -6 7.5c-3.33301 2.66699 -7.33301 5.66699 -12 9s-8.83398 6.83301 -12.501 10.5s-6.5 6.83398 -8.5 9.50098
s-2.33301 4.66699 -1 6c2.66699 3.33301 6 6.33301 10 9c3.33301 2 8 3 14 3s13.667 -2 23 -6c1.33301 0.666992 2.66602 1.66699 3.99902 3c0.666992 1.33301 1 2.66602 1 3.99902s-1.33301 3.66602 -4 6.99902c-5.33301 3.33301 -9.33301 7 -12 11
c-2.66699 3.33301 -4.33398 7 -5.00098 11s1 8 5 12c9.33301 4.66699 21 4.33398 35 -0.999023c12 -4.66699 27.5 -14.167 46.5 -28.5s42.167 -37.833 69.5 -70.5c4 -4.66699 7.33301 -8 10 -10s5.16699 -2.66699 7.5 -2s3.83301 4.33398 4.5 11.001
c16 62 34.333 118.333 55 169c8.66699 21.333 18.334 42.5 29.001 63.5s22.334 40 35.001 57s26.167 31.167 40.5 42.5s29.5 18.333 45.5 21c7.33301 -1.33301 14.333 -2 21 -2c5.33301 0 10.833 0.333008 16.5 1s9.5 2.66699 11.5 6c6.66699 2 13 3.66699 19 5
c5.33301 1.33301 10.5 2 15.5 2s9.16699 -1.66699 12.5 -5c2.66699 -2.66699 5.33398 -5 8.00098 -7c2.66699 -1.33301 5.5 -2.33301 8.5 -3s6.16699 0.333008 9.5 3c8.66699 3.33301 16.334 5.33301 23.001 6c5.33301 0.666992 9.5 -0.166016 12.5 -2.49902
s2.5 -7.5 -1.5 -15.5l-28 -23c-7.33301 -6 -14.833 -11.5 -22.5 -16.5s-13.5 -7.5 -17.5 -7.5c-9.33301 -0.666992 -13.333 -3.83398 -12 -9.50098s5.66602 -9.16699 12.999 -10.5c39.333 -4.66699 74.666 -14 105.999 -28c13.333 -6 26.333 -13.333 39 -22
s24 -18.834 34 -30.501s18 -25.167 24 -40.5s9 -32.666 9 -51.999c2.66699 -6.66699 6.33398 -11.334 11.001 -14.001c4 -2.66699 9.33301 -3.16699 16 -1.5s15 7.16699 25 16.5l32 19c8.66699 5.33301 17 10 25 14s14 6.33301 18 7c2.66699 1.33301 5.33398 2 8.00098 2
c2 -0.666992 3.66699 -2 5 -4s1.66602 -6 0.999023 -12c-8.66699 -14.667 -17.667 -28 -27 -40c-8 -10.667 -17.167 -21.167 -27.5 -31.5s-21.166 -18.166 -32.499 -23.499c-4.66699 -6 -7.66699 -11.333 -9 -16c-1.33301 -4 -0.666016 -7.33301 2.00098 -10s9 -3 19 -1
c7.33301 1.33301 14.333 3 21 5c12.667 3.33301 23.667 7.66602 33 12.999c8 3.33301 14.667 5.33301 20 6c4.66699 0.666992 8 -0.666016 10 -3.99902s0.333008 -9.66602 -5 -18.999c-18 -12 -35 -22.333 -51 -31l-39 -20.5c-12.667 -6.33301 -21.667 -9.5 -27 -9.5
c-2.66699 -0.666992 -5 -2 -7 -4c-4.66699 -3.33301 -7 -7.66602 -7 -12.999c-7.33301 -75.333 -31.666 -142.666 -72.999 -201.999c-17.333 -25.333 -39.333 -50 -66 -74s-59 -45.5 -97 -64.5s-82.333 -34.333 -133 -46s-109.334 -17.5 -176.001 -17.5
c-52 -0.666992 -103.667 5.33301 -155 18c-22 5.33301 -45.333 12.5 -70 21.5s-49.334 20.167 -74.001 33.5s-49 29.5 -73 48.5s-47 41.167 -69 66.5c-6.66699 6.66699 -11.334 12.334 -14.001 17.001c-2.66699 4 -4 7.5 -4 10.5s3.66699 3.83301 11 2.5z" />
    <glyph glyph-name="uniF310" unicode="&#xf310;" horiz-adv-x="867" 
d="M288 814v-231.001h230v-151h-230v-225c0 -27.333 0.5 -49.666 1.5 -66.999s3.16699 -29.666 6.5 -36.999c6 -15.333 16.667 -27.666 32 -36.999c10.667 -6.66699 22.834 -11.5 36.501 -14.5s27.167 -4.5 40.5 -4.5c23.333 0 48.666 3.83301 75.999 11.5
s52.666 19.167 75.999 34.5v-148c-20 -9.33301 -40.833 -17.333 -62.5 -24s-40.5 -12 -56.5 -16c-16.667 -3.33301 -33.667 -6 -51 -8s-35.666 -3 -54.999 -3c-10.667 0 -19.5 0.333008 -26.5 1s-13.5 1.66699 -19.5 3s-12 3 -18 5l-21 7
c-32.667 10.667 -60.667 26.334 -84 47.001c-24 21.333 -40.333 42.666 -49 63.999s-13 54 -13 98v313h-98v140c18.667 6 34.834 13.167 48.501 21.5s27.167 18.166 40.5 29.499s25.166 26.166 35.499 44.499l27.5 50.5c4 8 7.83301 15.167 11.5 21.5s7 13 10 20
s5.83301 14.833 8.5 23.5s4.66699 19 6 31h97z" />
    <glyph glyph-name="uniF315" unicode="&#xf315;" horiz-adv-x="802" 
d="M708 452c36 1.33301 60.835 -2.50195 74.502 -11.502s19.834 -24.167 18.501 -45.5v-171c0 -38 -8.16699 -73.833 -24.5 -107.5s-38 -63 -65 -88s-58.333 -44.667 -94 -59s-72.834 -21.5 -111.501 -21.5h-224c-38.667 0 -75 7.16699 -109 21.5s-63.833 34 -89.5 59
s-45.834 54.333 -60.501 88s-22 69.5 -22 107.5v248c0 38 7.33301 73.667 22 107s34.834 62.5 60.501 87.5s55.5 44.833 89.5 59.5s70.333 22 109 22h105c40 -0.666992 76 -7 108 -19s59.667 -28.833 83 -50.5s41.833 -47.167 55.5 -76.5s22.167 -61.666 25.5 -96.999
c0.666992 -4 1.66699 -9.16699 3 -15.5s3.66602 -12.166 6.99902 -17.499s8.16602 -10 14.499 -14s14.5 -6 24.5 -6zM254.002 561.998c-15.333 0 -28.666 -5.33301 -39.999 -16s-17 -23.667 -17 -39s5.66699 -28.5 17 -39.5s24.666 -16.5 39.999 -16.5h147
c15.333 0 28.5 5.5 39.5 16.5s16.5 24.167 16.5 39.5s-5.5 28.333 -16.5 39s-24.167 16 -39.5 16h-147zM552.002 152.998c16 0 29.667 5.33301 41 16s17 23.667 17 39s-5.66699 28.5 -17 39.5s-25 16.5 -41 16.5h-302c-16 0 -29.833 -5.5 -41.5 -16.5
s-17.5 -24.167 -17.5 -39.5s5.83301 -28.333 17.5 -39s25.5 -16 41.5 -16h302z" />
    <glyph glyph-name="uniF31B" unicode="&#xf31b;" horiz-adv-x="805" 
d="M2 608h159v-641h-159v641zM559 623c22 0 46.8311 -3.49902 74.498 -10.499s53.834 -20.667 78.501 -41s45.5 -48.833 62.5 -85.5s25.5 -84.334 25.5 -143.001v-376h-159v362c0 34 -11 62.5 -33 85.5s-53 34.5 -93 34.5c-39.333 0 -68.166 -11.5 -86.499 -34.5
s-27.5 -51.833 -27.5 -86.5v-361h-160v641h160v-87c6 12 13.5 24 22.5 36s19.833 23 32.5 33s27.5 18 44.5 24s36.5 9 58.5 9zM80.998 847.001c22.667 0 41.834 -7.83301 57.501 -23.5s23.5 -34.834 23.5 -57.501s-7.83301 -41.834 -23.5 -57.501
s-34.834 -23.5 -57.501 -23.5s-41.834 7.83301 -57.501 23.5s-23.5 34.834 -23.5 57.501s7.83301 41.834 23.5 57.501s34.834 23.5 57.501 23.5z" />
    <glyph glyph-name="uniF4E5" unicode="&#xf4e5;" horiz-adv-x="861" 
d="M759 417l-328.999 -340l-331 340h220v286c0 15.333 4.66699 28.166 14 38.499s20.666 15.5 33.999 15.5h125c13.333 0 24.5 -5.16699 33.5 -15.5s13.5 -23.166 13.5 -38.499v-286h220zM117.001 199v-142h625v142h117v-202c0 -16.667 -5.66699 -30.834 -17 -42.501
s-25 -17.5 -41 -17.5h-743c-16 0 -29.833 5.83301 -41.5 17.5s-17.5 25.834 -17.5 42.501v202h118z" />
    <glyph glyph-name="uniF50D" unicode="&#xf50d;" horiz-adv-x="852" 
d="M827 25c12 -12 17.999 -26.335 17.999 -43.002s-6 -30.667 -18 -42c-11.333 -12 -25.333 -18 -42 -18s-31 6 -43 18l-167 167c-30 -21.333 -62.5 -37.666 -97.5 -48.999s-71.833 -17 -110.5 -17c-50 0 -97 9.5 -141 28.5s-82.333 44.667 -115 77s-58.5 70.333 -77.5 114
s-28.5 90.5 -28.5 140.5s9.5 96.833 28.5 140.5s44.833 81.834 77.5 114.501s71 58.5 115 77.5s91 28.5 141 28.5s96.833 -9.5 140.5 -28.5s81.834 -44.833 114.501 -77.5s58.5 -70.834 77.5 -114.501s28.5 -90.5 28.5 -140.5c0 -39.333 -6 -76.666 -18 -111.999
s-28.667 -68 -50 -98zM366.999 160.998c33.333 0 64.666 6.33301 93.999 19s54.833 29.834 76.5 51.501s38.834 47 51.501 76s19 60.167 19 93.5s-6.33301 64.666 -19 93.999s-29.834 54.833 -51.501 76.5s-47.167 38.834 -76.5 51.501s-60.666 19 -93.999 19
s-64.666 -6.33301 -93.999 -19s-55 -29.834 -77 -51.501s-39.333 -47.167 -52 -76.5s-19 -60.666 -19 -93.999s6.33301 -64.5 19 -93.5s30 -54.333 52 -76s47.667 -38.834 77 -51.501s60.666 -19 93.999 -19z" />
    <glyph glyph-name="_1" horiz-adv-x="0" 
 />
    <glyph glyph-name="gplus_1" horiz-adv-x="928" 
d="M489 32c0 8 -0.999023 15.668 -2.99902 23.001l-5 20c-1.33301 6 -4.66602 12.333 -9.99902 19s-9.33301 12.334 -12 17.001s-7.66699 10 -15 16s-12.333 10.667 -15 14s-8.66699 8 -18 14s-15 10.333 -17 13s-8 7 -18 13s-15.667 10 -17 12c-6 0.666992 -15.333 1 -28 1
c-20 0 -39.667 -1.33301 -59 -4s-39.333 -7.33398 -60 -14.001s-39 -15.334 -55 -26.001s-29 -24.667 -39 -42s-15 -37.333 -15 -60c0 -25.333 6.66699 -48 20 -68s30.666 -35.667 51.999 -47s43.666 -19.666 66.999 -24.999s47 -8 71 -8c22 0 43 2.33301 63 7
s38.667 12 56 22s31.333 23.667 42 41s15.667 37.666 15 60.999v1zM422.001 513.001c0 22 -2.99805 45.666 -8.99805 70.999s-14.667 49.666 -26 72.999s-27 42.666 -47 57.999s-42.333 23 -67 23c-34.667 0 -61.334 -13 -80.001 -39s-28 -56.667 -28 -92
c0 -17.333 2 -35.666 6 -54.999s10.667 -38.666 20 -57.999s19.666 -36.666 30.999 -51.999s26 -28 44 -38s36 -15 54 -15c36 0 62 11.333 78 34s24 52.667 24 90zM349.003 778l244.003 -0.00390625l-75 -44h-75c26.667 -16.667 47 -40 61 -70s21.333 -61.333 22 -94
c0 -27.333 -4.33301 -51.666 -13 -72.999s-19 -38.666 -31 -51.999s-24.333 -25.333 -37 -36s-23 -22 -31 -34s-12.333 -24.667 -13 -38c0 -10 3 -19.333 9 -28s14 -17.667 24 -27s21 -18.333 33 -27s24 -19 36 -31s23 -24.333 33 -37s18 -28.334 24 -47.001
s9 -38.334 9 -59.001c0 -59.333 -26 -111.666 -78 -156.999c-56.667 -48.667 -134.667 -73 -234 -73c-22 0 -44.333 2 -67 6s-45.334 10.333 -68.001 19s-43 19.334 -61 32.001s-32.333 29.334 -43 50.001s-16.334 43.334 -17.001 68.001c0 22.667 7 47.667 21 75
c12 24 30 44.667 54 62s51 30.666 81 39.999s58.667 16 86 20s55.333 6.66699 84 8c-24 30.667 -36 58.334 -36 83.001c0 4.66699 0.333008 9 1 13s1.66699 7.66699 3 11s2.66602 7.33301 3.99902 12s2.66602 8.66699 3.99902 12c-14.667 -2 -27.667 -3 -39 -3
c-55.333 0 -103 18.333 -143 55s-59.667 82.334 -59 137.001c0 52 17.667 98.667 53 140s79 67.666 131 78.999c34.667 7.33301 69.334 11 104.001 11zM929.006 634.996v-71h-143v-143h-71v143h-143v71h143v143h71v-143h143z" />
  </font>
</defs>
</svg>
